Music

Jerusalem in My Heart - Discography Full album in mp3 or Flac

Dont Forget Seed After Download!
Jerusalem in My Heart - Discography Full album in mp3 or Flac.torrent

Jerusalem in My Heart

Jerusalem in My Heart - Discography Full album in mp3 or Flac

Formed: 2005, Montréal, QC, Canada
DISCOGRAPHY, 3CD
Genere : Arabic Folk Music | Avant-Folk | Drone | EA | Electronic
Formato : FLAC (*.flac) | tracks+.cue | lossless | CD

[19.03.2013] • CD "Mo7it Al-Mo7it" • Constellation / CST093 • 00.40.37.
01 Koll Lil-Mali7ati Fi Al-Khimar Al-Aswadi (Speak of the Woman in the Black Robe)
02 3andalib Al-Furat (Nightingale of the Euphrates)
03 Yudaghdegh El-ra3ey Walal-Ghanam (He Titillates the Shepherd, but not the Sheep…)
04 3anzah Jarbanah (Sick, Diseased Goat)
05 Dam3et El-3ein 3 (Oh Tear of the Eye 3)
06 Ko7l El-3ein, 3emian El-3ein (Eyeliner of the Eye, Blindness of the Eye)
07 Amanem (Amanem)

Code:

Exact Audio Copy V1.0 beta 2 from 29. April 2011
EAC extraction logfile from 27. March 2013, 10:44
Jerusalem In My Heart / Mo7it Al-Mo7it
Used drive : TSSTcorpDVD+-RW TS-H653G Adapter: 1 ID: 0
Read mode : Secure
Utilize accurate stream : Yes
Defeat audio cache : Yes
Make use of C2 pointers : No
Read offset correction : 6
Overread into Lead-In and Lead-Out : No
Fill up missing offset samples with silence : Yes
Delete leading and trailing silent blocks : No
Null samples used in CRC calculations : Yes
Used interface : Native Win32 interface for Win NT & 2000
Gap handling : Appended to previous track
Used output format : User Defined Encoder
Selected bitrate : 896 kBit/s
Quality : High
Add ID3 tag : No
Command line compressor : C:Program Files (x86)Exact Audio CopyFlacflac.exe
Additional command line options : -8 -V -T "ARTIST=%artist%" -T "TITLE=%title%" -T "ALBUM=%albumtitle%" -T "DATE=%year%" -T "TRACKNUMBER=%tracknr%" -T "GENRE=%genre%" -T "PERFORMER=%albuminterpret%" -T "COMPOSER=%composer%" %haslyrics%--tag-from-file=LYRICS
TOC of the extracted CD
Track | Start | Length | Start sector | End sector
---------------------------------------------------------
1 | 0:00.00 | 2:55.04 | 0 | 13128
2 | 2:55.04 | 9:47.02 | 13129 | 57155
3 | 12:42.06 | 3:21.73 | 57156 | 72303
4 | 16:04.04 | 6:34.18 | 72304 | 101871
5 | 22:38.22 | 5:09.46 | 101872 | 125092
6 | 27:47.68 | 3:55.39 | 125093 | 142756
7 | 31:43.32 | 8:53.18 | 142757 | 182749
Track 1
Filename C:EAC RipsJerusalem In My Heart - Mo7it Al-Mo7it (2013) [FLAC]1 - Koll Lil-Mali7ati Fi Al-Khimar Al-Aswadi.wav
Pre-gap length 0:00:02.00
Peak level 98.3 %
Extraction speed 3.9 X
Track quality 100.0 %
Test CRC 973370EE
Copy CRC 973370EE
Track not present in AccurateRip database
Copy OK
Track 2
Filename C:EAC RipsJerusalem In My Heart - Mo7it Al-Mo7it (2013) [FLAC]2 - 3andalib Al-Furat.wav
Peak level 98.1 %
Extraction speed 5.3 X
Track quality 100.0 %
Test CRC 3FB824A3
Copy CRC 3FB824A3
Track not present in AccurateRip database
Copy OK
Track 3
Filename C:EAC RipsJerusalem In My Heart - Mo7it Al-Mo7it (2013) [FLAC]3 - Yudaghdegh El-ra3ey Walal-Ghanam.wav
Peak level 98.3 %
Extraction speed 5.5 X
Track quality 100.0 %
Test CRC B51EC753
Copy CRC B51EC753
Track not present in AccurateRip database
Copy OK
Track 4
Filename C:EAC RipsJerusalem In My Heart - Mo7it Al-Mo7it (2013) [FLAC]4 - 3anzah Jarbanah.wav
Peak level 98.3 %
Extraction speed 6.3 X
Track quality 100.0 %
Test CRC A629F754
Copy CRC A629F754
Track not present in AccurateRip database
Copy OK
Track 5
Filename C:EAC RipsJerusalem In My Heart - Mo7it Al-Mo7it (2013) [FLAC]5 - Dam3et El-3ein 3.wav
Peak level 98.5 %
Extraction speed 6.7 X
Track quality 100.0 %
Test CRC 70F180AE
Copy CRC 70F180AE
Track not present in AccurateRip database
Copy OK
Track 6
Filename C:EAC RipsJerusalem In My Heart - Mo7it Al-Mo7it (2013) [FLAC]6 - Ko7l El-3ein, 3emian El-3ein.wav
Peak level 98.2 %
Extraction speed 6.8 X
Track quality 100.0 %
Test CRC 7B4AF581
Copy CRC 7B4AF581
Track not present in AccurateRip database
Copy OK
Track 7
Filename C:EAC RipsJerusalem In My Heart - Mo7it Al-Mo7it (2013) [FLAC]7 - Amanem.wav
Peak level 98.3 %
Extraction speed 7.9 X
Track quality 100.0 %
Test CRC 93E376B1
Copy CRC 93E376B1
Track not present in AccurateRip database
Copy OK
None of the tracks are present in the AccurateRip database
No errors occurred
End of status report
==== Log checksum 274A82E085A6F40DC1B07B448A8C825476A151F93FBEBEBAAD748B490E6D2CDF ====



[14.04.2015] • CD "Suuns and Jerusalem in My Heart" • Secretly Canadian / SC324 • 00.35.56.
01 2amoutu I7tirakan
02 Metal
03 Seif
04 In Touch
05 Gazelles In Flight
06 Leyla
07 3attam Babey

Code:

Exact Audio Copy V1.1 from 23. June 2015
EAC extraction logfile from 12. December 2015, 20:10
Suuns & Jerusalem In My Heart / Suuns and Jerusalem In My Heart
Used drive : TSSTcorpCDDVDW SE-208GB Adapter: 1 ID: 0
Read mode : Secure
Utilize accurate stream : Yes
Defeat audio cache : Yes
Make use of C2 pointers : No
Read offset correction : 6
Overread into Lead-In and Lead-Out : No
Fill up missing offset samples with silence : Yes
Delete leading and trailing silent blocks : No
Null samples used in CRC calculations : Yes
Used interface : Native Win32 interface for Win NT & 2000
Gap handling : Appended to previous track
Used output format : User Defined Encoder
Selected bitrate : 1024 kBit/s
Quality : High
Add ID3 tag : No
Command line compressor : C:Program Files (x86)Exact Audio CopyFlacflac.exe
Additional command line options : -8 -V -T "ARTIST=%artist%" -T "TITLE=%title%" -T "ALBUM=%albumtitle%" -T "DATE=%year%" -T "TRACKNUMBER=%tracknr%" -T "GENRE=%genre%" -T "PERFORMER=%albuminterpret%" -T "COMPOSER=%composer%" %haslyrics%--tag-from-file=LYRICS="%lyricsfile%"%haslyrics% -T "ALBUMARTIST=%albumartist%" -T "DISCNUMBER=%cdnumber%" -T "TOTALDISCS=%totalcds%" -T "TOTALTRACKS=%numtracks%" -T "COMMENT=%comment%" %source% -o %dest%
TOC of the extracted CD
Track | Start | Length | Start sector | End sector
---------------------------------------------------------
1 | 0:00.00 | 6:14.55 | 0 | 28104
2 | 6:14.55 | 3:50.14 | 28105 | 45368
3 | 10:04.69 | 3:42.21 | 45369 | 62039
4 | 13:47.15 | 5:47.46 | 62040 | 88110
5 | 19:34.61 | 5:13.32 | 88111 | 111617
6 | 24:48.18 | 2:03.29 | 111618 | 120871
7 | 26:51.47 | 8:44.16 | 120872 | 160187
Track 1
Filename C:RipSuuns & Jerusalem In My Heart - Suuns and Jerusalem In My Heart (2015) [FLAC]1 - 2amoutu 17tirakan.wav
Pre-gap length 0:00:02.00
Peak level 97.7 %
Extraction speed 1.1 X
Track quality 100.0 %
Test CRC 9EEA2859
Copy CRC 9EEA2859
Accurately ripped (confidence 2) [49B276D7] (AR v2)
Copy OK
Track 2
Filename C:RipSuuns & Jerusalem In My Heart - Suuns and Jerusalem In My Heart (2015) [FLAC]2 - Metal.wav
Peak level 97.7 %
Extraction speed 1.1 X
Track quality 100.0 %
Test CRC F0E090E1
Copy CRC F0E090E1
Accurately ripped (confidence 2) [B1F61136] (AR v2)
Copy OK
Track 3
Filename C:RipSuuns & Jerusalem In My Heart - Suuns and Jerusalem In My Heart (2015) [FLAC]3 - Seif.wav
Peak level 97.7 %
Extraction speed 1.2 X
Track quality 100.0 %
Test CRC 9FD374D0
Copy CRC 9FD374D0
Accurately ripped (confidence 2) [A749D942] (AR v2)
Copy OK
Track 4
Filename C:RipSuuns & Jerusalem In My Heart - Suuns and Jerusalem In My Heart (2015) [FLAC]4 - In Touch.wav
Peak level 97.8 %
Extraction speed 1.2 X
Track quality 99.9 %
Test CRC E36DECA6
Copy CRC E36DECA6
Accurately ripped (confidence 2) [C79B5029] (AR v2)
Copy OK
Track 5
Filename C:RipSuuns & Jerusalem In My Heart - Suuns and Jerusalem In My Heart (2015) [FLAC]5 - Gazelles In Flight.wav
Peak level 97.7 %
Extraction speed 1.5 X
Track quality 100.0 %
Test CRC FCC42F80
Copy CRC FCC42F80
Accurately ripped (confidence 2) [8CF2836D] (AR v2)
Copy OK
Track 6
Filename C:RipSuuns & Jerusalem In My Heart - Suuns and Jerusalem In My Heart (2015) [FLAC]6 - Leyla.wav
Peak level 97.7 %
Extraction speed 1.3 X
Track quality 100.0 %
Test CRC 4778CD71
Copy CRC 4778CD71
Accurately ripped (confidence 2) [2F043E5D] (AR v2)
Copy OK
Track 7
Filename C:RipSuuns & Jerusalem In My Heart - Suuns and Jerusalem In My Heart (2015) [FLAC]7 - 3attam Babey.wav
Peak level 97.7 %
Extraction speed 1.6 X
Track quality 99.9 %
Test CRC EEEA7BA3
Copy CRC EEEA7BA3
Accurately ripped (confidence 2) [D08122FC] (AR v2)
Copy OK
All tracks accurately ripped
No errors occurred
End of status report
---- CUETools DB Plugin V2.1.6
[CTDB TOCID: xdo4jDrje4nReKBMDZFgi9N63ug-] found
Submit result: xdo4jDrje4nReKBMDZFgi9N63ug- has been confirmed
Track | CTDB Status
1 | (2/2) Accurately ripped
2 | (2/2) Accurately ripped
3 | (2/2) Accurately ripped
4 | (2/2) Accurately ripped
5 | (2/2) Accurately ripped
6 | (2/2) Accurately ripped
7 | (2/2) Accurately ripped
==== Log checksum 3F2C8B2A9D0354B0825DE88CDCAB6E9BF8F764F9716F223A891D9EACC3D750EB ====



[04.09.2015] • CD "If He Dies, If If If If If If" • Constellation / CST114 • 00.40.50.
01 Al Affaq, Lau Mat, Lau Lau Lau Lau Lau Lau (The Hypocrite, If He Dies, If If If If If If)
02 A Granular Buzuk
03 7ebr El 3oyoun (Ink From The Eyes)
04 Qala Li Kafa Kafa Kafa Kafa Kafa Kafa (To Me He Said Enough Enough Enough Enough Enough Enough)
05 Lau Ridyou Bil Hijaz (What If The Hijaz Was Enough)
06 Ta3mani; Ta3meitu (He Fed Me; I Fed Him)
07 Ah Ya Mal El Sham (Oh The Money of Syria)
08 2asmar Sa7ar (The Brown One Cast A Spell)

Code:

Exact Audio Copy V1.1 from 23. June 2015
EAC extraction logfile from 16. January 2016, 1:42
Jerusalem in My Heart / If He Dies, If If If If If If
Used drive : TSSTcorpCDDVDW SE-208GB Adapter: 1 ID: 0
Read mode : Secure
Utilize accurate stream : Yes
Defeat audio cache : Yes
Make use of C2 pointers : No
Read offset correction : 6
Overread into Lead-In and Lead-Out : No
Fill up missing offset samples with silence : Yes
Delete leading and trailing silent blocks : No
Null samples used in CRC calculations : Yes
Used interface : Native Win32 interface for Win NT & 2000
Gap handling : Appended to previous track
Used output format : User Defined Encoder
Selected bitrate : 1024 kBit/s
Quality : High
Add ID3 tag : No
Command line compressor : C:Program Files (x86)Exact Audio CopyFlacflac.exe
Additional command line options : -8 -V -T "ARTIST=%artist%" -T "TITLE=%title%" -T "ALBUM=%albumtitle%" -T "DATE=%year%" -T "TRACKNUMBER=%tracknr%" -T "GENRE=%genre%" -T "PERFORMER=%albuminterpret%" -T "COMPOSER=%composer%" %haslyrics%--tag-from-file=LYRICS="%lyricsfile%"%haslyrics% -T "ALBUMARTIST=%albumartist%" -T "DISCNUMBER=%cdnumber%" -T "TOTALDISCS=%totalcds%" -T "TOTALTRACKS=%numtracks%" -T "COMMENT=%comment%" %source% -o %dest%
TOC of the extracted CD
Track | Start | Length | Start sector | End sector
---------------------------------------------------------
1 | 0:00.00 | 2:13.48 | 0 | 10022
2 | 2:13.48 | 7:08.32 | 10023 | 42154
3 | 9:22.05 | 4:33.06 | 42155 | 62635
4 | 13:55.11 | 5:05.60 | 62636 | 85570
5 | 19:00.71 | 3:39.08 | 85571 | 102003
6 | 22:40.04 | 5:07.74 | 102004 | 125102
7 | 27:48.03 | 7:26.00 | 125103 | 158552
8 | 35:14.03 | 5:35.68 | 158553 | 183745
Track 1
Filename C:RipJerusalem in My Heart - If He Dies, If If If If If If (2015) [FLAC]1 - Al Affaq, Lau Mat, Lau Lau Lau Lau Lau Lau.wav
Pre-gap length 0:00:02.00
Peak level 95.7 %
Extraction speed 0.9 X
Track quality 100.0 %
Test CRC 26A926B9
Copy CRC 26A926B9
Track not present in AccurateRip database
Copy OK
Track 2
Filename C:RipJerusalem in My Heart - If He Dies, If If If If If If (2015) [FLAC]2 - A Granular Buzuk.wav
Peak level 96.3 %
Extraction speed 1.2 X
Track quality 100.0 %
Test CRC 76BEFA8B
Copy CRC 76BEFA8B
Track not present in AccurateRip database
Copy OK
Track 3
Filename C:RipJerusalem in My Heart - If He Dies, If If If If If If (2015) [FLAC]3 - 7ebr El 3oyoun.wav
Peak level 96.1 %
Extraction speed 1.3 X
Track quality 100.0 %
Test CRC B710529D
Copy CRC B710529D
Track not present in AccurateRip database
Copy OK
Track 4
Filename C:RipJerusalem in My Heart - If He Dies, If If If If If If (2015) [FLAC]4 - Qala Li Kafa Kafa Kafa Kafa Kafa Kafa.wav
Peak level 95.9 %
Extraction speed 1.3 X
Track quality 99.9 %
Test CRC AFC74384
Copy CRC AFC74384
Track not present in AccurateRip database
Copy OK
Track 5
Filename C:RipJerusalem in My Heart - If He Dies, If If If If If If (2015) [FLAC]5 - Lau Ridyou Bil Hijaz.wav
Peak level 95.7 %
Extraction speed 1.3 X
Track quality 99.9 %
Test CRC EE978045
Copy CRC EE978045
Track not present in AccurateRip database
Copy OK
Track 6
Filename C:RipJerusalem in My Heart - If He Dies, If If If If If If (2015) [FLAC]6 - Ta3mani; Ta3meitu.wav
Peak level 95.7 %
Extraction speed 1.7 X
Track quality 100.0 %
Test CRC EE8B1733
Copy CRC EE8B1733
Track not present in AccurateRip database
Copy OK
Track 7
Filename C:RipJerusalem in My Heart - If He Dies, If If If If If If (2015) [FLAC]7 - Ah Ya Mal El Sham.wav
Peak level 95.7 %
Extraction speed 1.9 X
Track quality 100.0 %
Test CRC 9A265312
Copy CRC 9A265312
Track not present in AccurateRip database
Copy OK
Track 8
Filename C:RipJerusalem in My Heart - If He Dies, If If If If If If (2015) [FLAC]8 - 2asmar Sa7ar.wav
Peak level 96.3 %
Extraction speed 1.9 X
Track quality 100.0 %
Test CRC AD7B01EA
Copy CRC AD7B01EA
Track not present in AccurateRip database
Copy OK
None of the tracks are present in the AccurateRip database
No errors occurred
End of status report
---- CUETools DB Plugin V2.1.6
[CTDB TOCID: 8z1jhIiSlLtGCSqPP3r6GNdliWI-] found
Submit result: 8z1jhIiSlLtGCSqPP3r6GNdliWI- has been confirmed
Track | CTDB Status
1 | (3/3) Accurately ripped
2 | (3/3) Accurately ripped
3 | (3/3) Accurately ripped
4 | (3/3) Accurately ripped
5 | (3/3) Accurately ripped
6 | (3/3) Accurately ripped
7 | (3/3) Accurately ripped
8 | (3/3) Accurately ripped
==== Log checksum 473E8C1F567EE686F4DE6F1CCBAF2B4DD6E88E4DE1D413D2A88BF9C5594EA647 ====


Resta in seed :-)


Files:

Jerusalem in My Heart (Discography) [2013.03.19] • Mo7it Al-Mo7it Artwork
disc.png (1.6 MB)
front.png (2.3 MB)
gatefold interior.png (6.5 MB)
insert01.png (1.8 MB)
insert02.png (1.6 MB)
rear.png (2.4 MB)
01. Koll Lil-Mali7ati Fi Al-Khimar Al-Aswadi (Speak of the Woman in the Black Robe).flac (15.7 MB)
02. 3andalib Al-Furat (Nightingale of the Euphrates).flac (44.8 MB)
03. Yudaghdegh El-ra3ey Walal-Ghanam (He Titillates the Shepherd, but not the Sheep…).flac (19.1 MB)
04. 3anzah Jarbanah (Sick, Diseased Goat).flac (38.6 MB)
05. Dam3et El-3ein 3 (Oh Tear of the Eye 3).flac (25.4 MB)
06. Ko7l El-3ein, 3emian El-3ein (Eyeliner of the Eye, Blindness of the Eye).flac (22.8 MB)
07. Amanem (Amanem).flac (44.9 MB)
Mo7it Al-Mo7it (noncompliant).cue (1.9 KB)
Mo7it Al-Mo7it (single WAV).cue (1.4 KB)
Mo7it Al-Mo7it.log (8.5 KB)
[2015.04.14] • Suuns and Jerusalem in My Heart
01. 2amoutu I7tirakan.flac (33.6 MB)
02. Metal.flac (25.5 MB)
03. Seif.flac (23.5 MB)
04. In Touch.flac (22.9 MB)
05. Gazelles In Flight.flac (35.2 MB)
06. Leyla.flac (8.7 MB)
07. 3attam Babey.flac (50.8 MB)
Suuns and Jerusalem in My Heart.cue (1.2 KB)
Suuns and Jerusalem in My Heart.jpg (873.3 KB)
Suuns and Jerusalem in My Heart.log (9.9 KB)
[2015.09.04] • If He Dies, If If If If If If
01. Al Affaq, Lau Mat, Lau Lau Lau Lau Lau Lau (The Hypocrite, If He Dies, If If If If If If).flac (12.8 MB)
02. A Granular Buzuk.flac (46.0 MB)
03. 7ebr El 3oyoun (Ink From The Eyes).flac (25.7 MB)
04. Qala Li Kafa Kafa Kafa Kafa Kafa Kafa (To Me He Said Enough Enough Enough Enough Enough Enough).flac (35.7 MB)
05. Lau Ridyou Bil Hijaz (What If The Hijaz Was Enough).flac (18.8 MB)
06. Ta3mani; Ta3meitu (He Fed Me; I Fed Him).flac (24.1 MB)
07. Ah Ya Mal El Sham (Oh The Money of Syria).flac (43.1 MB)
08. 2asmar Sa7ar (The Brown One Cast A Spell).flac (35.1 MB)
If He Dies, If If If If If If.cue (2.1 KB)
If He Dies, If If If If If If.jpg (837.5 KB)
If He Dies, If If If If If If.log (10.6 KB) You file ready to download from usenet:
Add comment

Add comment